#TITLE:Cross Time;
#SUBTITLE:;
#ARTIST:Brandy;
#TITLETRANSLIT:Cross Time;
#SUBTITLETRANSLIT:;
#ARTISTTRANSLIT:Brandy;
#CREDIT:Chu Nhat , 7-6-2009;
#BANNER:Cross Time-bn.png;
#BACKGROUND:Cross Time-bg.png;
#LYRICSPATH:;
#CDTITLE:Cross Time-cd.png;
#MUSIC:Cross Time.mp3;
#OFFSET:-0.235;
#SAMPLESTART:45.200;
#SAMPLELENGTH:20.000;
#SELECTABLE:YES;
#DISPLAYBPM:160.010;
#BPMS:0.000=160.010,252.000=80.050,272.000=160.010;
#STOPS:;
#BGCHANGES:;
// cache tags:
#FIRSTBEAT:0.000;
#LASTBEAT:371.500;
#SONGFILENAME:Songs/Music V.I.P ^_^/Cross Time/Cross Time.sm;
#HASMUSIC:1;
#HASBANNER:1;
#MUSICLENGTH:148.408;
// end cache tags

//---------------dance-single - ----------------
#NOTES:
     dance-single:
     :
     Hard:
     11:
     1.000,1.000,1.000,0.013,0.590,809.000,281.000,2.000,0.000,24.000:
1010
1000
1000
0100
1001
0010
0100
1000
,
0011
0010
0100
0010
1001
0010
0100
1000
,
0101
0100
0010
0001
1010
0100
1000
0001
,
1100
0100
0010
0001
1010
0100
1000
0010
,
1001
0000
0000
0000
0001
0010
0001
0010
1100
0000
1000
0000
1000
0000
1000
0000
,
0011
1000
0010
0101
0000
0101
1000
1000
,
0110
0110
0001
0001
1010
1010
0100
0100
,
1001
1001
0010
1100
0000
0110
0110
0110
,
1101
0000
0000
0000
0011
0100
1000
0100
0010
0000
1001
0000
0100
0000
0010
0000
,
1001
0000
0100
0000
0010
0000
1000
0000
0111
0000
0000
0111
0000
0000
0111
0000
,
1010
0000
0011
0000
0100
0010
1000
0100
0001
0000
1100
0000
0001
0000
1000
0000
,
0010
0010
1000
0010
0000
0010
1010
0000
0010
0000
1010
0010
0000
0010
1010
0000
,
1010
0000
0000
0000
1011
0000
0000
0000
1010
0100
0010
0000
1001
0000
0010
0001
,
0110
1101
1100
0111
,
0011
0000
0001
0100
1010
0100
0001
0100
0010
0100
0001
0100
1010
0100
0010
0001
,
1100
0100
0000
0100
1001
0100
0100
0000
1100
0000
0100
0100
1001
0100
0100
0000
,
1010
0010
0000
0010
1001
0010
0010
0000
0010
0000
0010
0010
1001
0010
0010
0000
,
0101
0010
0001
0000
1100
0000
1000
0000
0111
0000
0000
0000
0111
0000
0000
0000
,
0001
0000
0010
0100
0001
0010
0100
0010
1000
0100
0010
0001
0100
0010
1000
0010
,
1001
0000
0100
0000
0010
0000
0001
0000
1100
0000
0000
0110
0000
0000
1100
0000
,
1001
0000
0100
0000
0010
0100
0000
1000
,
0000
0001
0000
0100
0010
0100
1000
0100
,
0011
0000
1000
0000
0001
0010
0000
0100
,
0000
1000
0000
0010
0000
0001
0010
0100
,
1010
0000
0100
0000
0001
1000
0000
0010
,
0000
0000
0100
0000
0000
0000
1000
0000
0111
0000
0000
0111
0000
0000
0111
0000
,
0011
0000
1000
0001
0100
1000
0010
0001
0100
0010
1000
0001
0010
1000
0100
0001
,
1110
0000
0100
0000
0001
0000
0010
0000
1100
0000
0000
0110
0000
0000
0011
0000
,
1100
0000
0000
1100
0000
0000
0011
0000
1100
0000
0000
1100
0000
0000
0011
0000
,
0101
0000
0000
0101
0000
0000
1010
0000
1001
0000
0000
1001
0000
0000
0110
0000
,
1001
1000
1100
0010
1001
0010
0101
1000
,
0101
0100
1010
0001
1010
0100
0011
1000
,
1001
1000
1100
0001
1010
0100
1001
0010
,
1001
0010
0100
0001
1100
0010
0100
0010
,
1001
1000
1100
0010
1001
0010
0101
1000
,
0110
0100
0010
0001
1010
0100
0011
1000
,
1000
1000
0110
0001
0010
0100
1001
0010
,
1000
0010
1100
0001
1000
0010
0101
0010
,
1000
1000
1001
0010
0101
1010
0101
1100
,
0001
0101
0010
1001
0010
1100
0011
0100
,
1100
0100
1010
0001
0110
0001
1100
0011
,
1000
0011
1100
0101
1000
0011
1100
0010
,
0100
0100
1101
0010
0101
1010
0001
1100
,
0001
0101
1010
1001
0010
1100
0101
1000
,
1010
1000
1110
0001
0010
0101
1000
0110
,
1000
0010
1001
0110
1000
0001
1010
0101
,
1010
0000
0000
0000
1010
0000
0000
0000
1000
0000
0010
0000
1000
0000
0010
0100
,
1001
0000
1001
0000
1001
0000
1010
1000
,
0101
0000
0000
0000
0101
0000
0000
0000
0101
0010
0001
0000
0100
0000
0001
0000
,
0100
0101
0000
0101
0010
1010
0000
0110
,
1010
0010
0000
0010
1001
0010
0010
0000
1010
0000
0010
0010
1001
0010
0010
0000
,
1001
0001
0000
0001
1010
0001
0001
0000
1001
0000
0001
0001
1010
0001
0001
0000
,
1010
0000
0001
0010
1100
0010
0001
0010
1000
0100
0010
0001
1100
0010
0100
0010
,
1001
0000
0010
0000
0100
0000
0001
0000
1010
0000
0000
1010
0000
0000
1010
0000
,
0101
0000
0000
0001
1100
0000
0000
0000
,
0001
0000
1000
0100
0011
0100
1010
0000
,
0011
0011
0000
0001
1110
1100
0000
0000
,
0101
0000
0101
0000
1000
0000
0110
0000
0001
0000
1100
0000
0110
0000
0101
0010
,
1000
0000
0000
1000
0001
0000
1000
0000
0010
0000
0000
0010
1000
0000
0100
0000
,
0000
0010
1000
0000
0001
0000
0000
0000
0110
0000
0100
1000
0110
0000
0000
0000
,
1000
0000
0000
1000
0000
0000
1000
0000
0001
0000
0001
0000
0010
1000
0100
0010
,
1001
0000
1000
0010
0000
0000
0100
0000
0010
0000
0000
0100
0000
0000
1000
0000
,
0001
0000
0100
1000
0000
0100
0010
0000
1000
0000
0001
0010
0000
0100
1000
0000
,
0002
0120
1000
0100
,
1133
0010
0001
0010
0100
1000
0100
0010
1001
0010
0100
1000
0100
0010
0001
0010
,
1001
0100
0010
0001
0010
0001
0010
0100
1010
0100
0010
0001
1010
0100
0010
0001
,
0110
0001
0010
0100
1000
0100
0010
0001
1010
0001
0010
0100
1000
0100
0010
0001
,
1100
0010
0100
1000
0100
0010
0100
1000
0011
0100
1000
0100
0011
1000
0100
0010
,
0101
0001
1010
0001
1100
0011
0100
1010
,
0001
0101
0010
1001
0010
1100
0100
1011
,
0001
0000
0100
0000
0010
0000
1001
0000
0010
0000
0100
1000
0000
0000
0101
0000
,
1000
0000
0010
0000
0100
0000
0001
0000
1000
0000
0010
0000
1000
0000
0010
1000
,
0101
0010
0100
1000
0001
0010
0100
1000
0101
0010
0100
1000
0001
0010
0100
0010
,
1001
0100
0010
0100
1000
0100
0011
0100
1000
0100
0011
0100
1000
0100
0010
0100
,
1011
1000
0110
0001
0010
0101
1000
0011
,
1100
0000
0010
0001
1100
0000
0001
0000
1000
0000
0010
1000
0100
0000
0010
0100
,
1001
0000
1010
0100
1000
0001
1010
0100
,
1001
0000
0110
1000
0100
0001
0110
1000
,
0101
0000
0110
1000
0010
0100
1010
0001
,
1000
0001
1010
0100
1000
0010
1100
0001
,
1001
0000
0101
0010
0001
1000
0101
0010
,
1001
0000
0110
0001
0010
1000
0110
0001
,
1010
0100
0010
0001
0110
1000
0001
0010
1100
0001
0010
1000
0101
0010
1000
0100
,
0011
1010
0101
0110
1001
1100
0011
0110
,
0100
0010
0100
0010
1001
0000
0000
0000
0100
0001
0100
0001
1010
0000
0000
0000
,
1000
0000
0000
1000
0110
0000
1000
0000
1000
0000
0000
1000
0110
1000
0001
0000
,
0010
0000
0000
0010
1100
0000
0010
0000
0100
0001
0100
0001
1110
0000
0000
0000
,
1010
0000
0010
1000
0000
0000
1010
0000
0101
0000
0000
0101
0000
0000
0101
0000
,
0010
0001
0010
0001
0110
0000
0010
0000
1000
0100
1000
0100
1010
0000
0010
0000
,
0001
0000
0000
0001
1010
0000
0001
0000
0001
0000
1000
0001
1010
0001
1000
0000
,
0100
0000
0000
0010
1100
0000
0010
0000
0100
0001
0100
0001
1110
0000
0000
0000
,
1010
0000
0010
1000
0000
0000
1010
0000
0101
0000
0000
0101
0000
0000
0101
0000
,
1010
0000
0010
1000
0000
0000
1010
0000
0101
0000
0001
0101
0000
1010
0101
0000
;
